Sign Up   |   Sign In  

Announcements

Please use this LINK to REGISTER or RENEW your account on Uploaded.net to support us.
We need your support to keep this website alive!

02/02

2014

No

Comments

Wahlburgers S01E02 5 OClock is Dinnertime HDTV x264-CLDD
[UL/180U]
Size: 148MB Single Link mp4 X264 / AAC 720x404

Wahlburgers
Click on the image to see full size
[UL/180U/PL] Wahlburgers S01E02 5 OClock is Dinnertime HDTV x264-CLDD (148MB) - Snapshot 1[UL/180U/PL] Wahlburgers S01E02 5 OClock is Dinnertime HDTV x264-CLDD (148MB) - Snapshot 2
File Information
General
Complete name                            : Wahlburgers.S01E02.5.OClock.is.Dinnertime.HDTV.x264-CLDD.mp4
Format                                   : MPEG-4
Format profile                           : Base Media
Codec ID                                 : isom
File size                                : 142 MiB
Duration                                 : 21mn 9s
Overall bit rate mode                    : Variable
Overall bit rate                         : 935 Kbps
Encoded date                             : UTC 2014-01-30 12:14:56
Tagged date                              : UTC 2014-01-30 12:14:56

Video
ID                                       : 1
Format                                   : AVC
Format/Info                              : Advanced Video Codec
Format profile                           : High@L3.1
Format settings, CABAC                   : Yes
Format settings, ReFrames                : 5 frames
Codec ID                                 : avc1
Codec ID/Info                            : Advanced Video Coding
Duration                                 : 21mn 9s
Bit rate                                 : 778 Kbps
Maximum bit rate                         : 2 462 Kbps
Width                                    : 720 pixels
Height                                   : 404 pixels
Display aspect ratio                     : 16:9
Frame rate mode                          : Constant
Frame rate                               : 29.970 fps
Color space                              : YUV
Chroma subsampling                       : 4:2:0
Bit depth                                : 8 bits
Scan type                                : Progressive
Bits/(Pixel*Frame)                       : 0.089
Stream size                              : 118 MiB (83%)
Title                                    : Video
Writing library                          : x264 core 119 r2106 07efeb4
Encoded date                             : UTC 2014-01-30 12:14:56
Tagged date                              : UTC 2014-01-30 12:14:58
Matrix coefficients                      : BT.709

Audio
ID                                       : 2
Format                                   : AAC
Format/Info                              : Advanced Audio Codec
Format profile                           : LC
Codec ID                                 : 40
Duration                                 : 21mn 9s
Bit rate mode                            : Variable
Bit rate                                 : 152 Kbps
Maximum bit rate                         : 185 Kbps
Channel(s)                               : 2 channels
Channel positions                        : Front: L R
Sampling rate                            : 48.0 KHz
Compression mode                         : Lossy
Stream size                              : 23.0 MiB (16%)
Language                                 : English
Encoded date                             : UTC 2014-01-30 12:14:57
Tagged date                              : UTC 2014-01-30 12:14:58





Thanks goes to original encoders/uploaders
Download
RAR Recovery Record: 5%
 
 
» Click to see all releases of "Wahlburgers" ...

Show us some love

Leave a Comment

  • (never displayed)

  •     Members don't see captchas. Sign Up / Sign In
  • Notify me via email when someone responds.
  • Subscribe my Feeds
  • Facebook

Latest Episodes

Popular Movies and TV Shows

  • Transformers: Age of Extinction
  • The Homesman
  • Suits
  • Haven
  • The Red Kebaya
  • Lost Time
  • The Scribbler
  • Crossing Lines
  • 8 Out of 10 Cats Does Countdown
  • Edge of Tomorrow
  • Reclaim
  • Extant
  • Tim and Eric's Bedtime Stories
  • You're the Worst
  • HK: Hentai Kamen
  • Rush
  • Satisfaction
  • Married
  • Space Station 76
  • Million Dollar Arm