Sign Up   |   Sign In  

Announcements

Please use this LINK to REGISTER or RENEW your account on Uploaded.net to support us.
We need your support to keep this website alive!

12/15

2012

No

Comments

The Execution of Raymond Graham DVDRip XviD
[UL/EB/180U/VK]
Size: 932MB Single Link Stream avi XVID / MP3

The Execution of Raymond Graham
Click on the image to see full size
[UL/EB/SS/ZS/BU/180U/VK] The Execution of Raymond Graham DVDRip XviD (932MB) - Snapshot 1[UL/EB/SS/ZS/BU/180U/VK] The Execution of Raymond Graham DVDRip XviD (932MB) - Snapshot 2
File Information
http://www.imdb.com/title/tt0089111/

     

Raymond Graham's life will soon end by lethal injection for a brutal murder. This drama plays out his last couple of hours as his apathy turns to terror as the minutes countdown.  Witness how this affects the family of the seventeen year old murder victim and his preacher. As well as the the protesters outside the prison wal  

General
Complete name : The Execution of Raymond Graham.avi
Format : AVI
Format/Info : Audio Video Interleave
File size : 887 MiB
Duration : 1h 36mn
Overall bit rate : 1 290 Kbps
Writing application : MEncoder version 4.0.0 building on 20100917


Video
ID : 0
Format : MPEG-4 Visual
Format profile : Simple@L1
Format settings, BVOP : No
Format settings, QPel : No
Format settings, GMC : No warppoints
Format settings, Matrix : Default (H.263)
Codec ID : DX50
Codec ID/Hint : DivX 5
Duration : 1h 36mn
Bit rate : 1 150 Kbps
Width : 720 pixels
Height : 540 pixels
Display aspect ratio : 4:3
Frame rate : 25.000 fps
Color space : YUV
Chroma subsampling : 4:2:0
Bit depth : 8 bits
Scan type : Progressive
Compression mode : Lossy
Bits/(Pixel*Frame) : 0.118
Stream size : 790 MiB (89%)
Writing library : DigiArty AV Encoder Core

Audio
ID : 1
Format : MPEG Audio
Format version : Version 1
Format profile : Layer 3
Codec ID : 55
Codec ID/Hint : MP3
Duration : 1h 36mn
Bit rate mode : Constant
Bit rate : 128 Kbps
Channel(s) : 2 channels
Sampling rate : 44.1 KHz
Compression mode : Lossy
Stream size : 88.0 MiB (10%)
Alignment : Aligned on interleaves
Interleave, duration : 26 ms (0.65 video frame)
Interleave, preload duration : 522 ms
Download
RAR Recovery Record: 5%
 
  Link(s) are dead.
 
Watch Online
» Click to see all releases of "The Execution of Raymond Graham" ...

Show us some love

Leave a Comment

  • (never displayed)

  •     Members don't see captchas. Sign Up / Sign In
  • Notify me via email when someone responds.
  • Subscribe my Feeds
  • Facebook

Latest Episodes

Popular Movies and TV Shows

  • The Flash
  • Agents of S.H.I.E.L.D.
  • Person of Interest
  • A Most Wanted Man
  • Hercules
  • Supernatural
  • Sons of Anarchy
  • Call the Council
  • Deepsea Challenge 3D
  • Transformers: Age of Extinction
  • NCIS: Naval Criminal Investigative Service
  • NCIS: New Orleans
  • Selfie
  • Hollows Grove
  • Step Up All In
  • The Big Bang Theory
  • Gotham
  • The Blacklist
  • Palo Alto
  • 20,000 Days on Earth