Sign Up   |   Sign In  

Announcements

Please buy a RapidRAR premium key from this reseller
Then
Redeem it in your account on RapidRAR.com to upgrade your account to premium.
Or use this LINK to REGISTER or RENEW your account on Uploaded.net.
--=We need your support to keep this website alive!=--

12/15

2012

No

Comments

The Execution of Raymond Graham DVDRip XviD
[UL/EB/180U/VK]
Size: 932MB Single Link Stream avi XVID / MP3

The Execution of Raymond Graham
Click on the image to see full size
[UL/EB/SS/ZS/BU/180U/VK] The Execution of Raymond Graham DVDRip XviD (932MB) - Snapshot 1[UL/EB/SS/ZS/BU/180U/VK] The Execution of Raymond Graham DVDRip XviD (932MB) - Snapshot 2
File Information
http://www.imdb.com/title/tt0089111/

     

Raymond Graham's life will soon end by lethal injection for a brutal murder. This drama plays out his last couple of hours as his apathy turns to terror as the minutes countdown.  Witness how this affects the family of the seventeen year old murder victim and his preacher. As well as the the protesters outside the prison wal  

General
Complete name : The Execution of Raymond Graham.avi
Format : AVI
Format/Info : Audio Video Interleave
File size : 887 MiB
Duration : 1h 36mn
Overall bit rate : 1 290 Kbps
Writing application : MEncoder version 4.0.0 building on 20100917


Video
ID : 0
Format : MPEG-4 Visual
Format profile : Simple@L1
Format settings, BVOP : No
Format settings, QPel : No
Format settings, GMC : No warppoints
Format settings, Matrix : Default (H.263)
Codec ID : DX50
Codec ID/Hint : DivX 5
Duration : 1h 36mn
Bit rate : 1 150 Kbps
Width : 720 pixels
Height : 540 pixels
Display aspect ratio : 4:3
Frame rate : 25.000 fps
Color space : YUV
Chroma subsampling : 4:2:0
Bit depth : 8 bits
Scan type : Progressive
Compression mode : Lossy
Bits/(Pixel*Frame) : 0.118
Stream size : 790 MiB (89%)
Writing library : DigiArty AV Encoder Core

Audio
ID : 1
Format : MPEG Audio
Format version : Version 1
Format profile : Layer 3
Codec ID : 55
Codec ID/Hint : MP3
Duration : 1h 36mn
Bit rate mode : Constant
Bit rate : 128 Kbps
Channel(s) : 2 channels
Sampling rate : 44.1 KHz
Compression mode : Lossy
Stream size : 88.0 MiB (10%)
Alignment : Aligned on interleaves
Interleave, duration : 26 ms (0.65 video frame)
Interleave, preload duration : 522 ms
Download
RAR Recovery Record: 5%
 
  Link(s) are dead.
 
Watch Online
» Click to see all releases of "The Execution of Raymond Graham" ...

Show us some love

Leave a Comment

  • (never displayed)
  •  
        Members don't see captchas. Sign Up / Sign In
  • Notify me via email when someone responds.
  • Subscribe my Feeds
  • Facebook

Latest Episodes

Popular Movies and TV Shows

  • Spy
  • Il capitale umano
  • The Road Within
  • Storage Hunters UK
  • UnREAL
  • Return to Sender
  • Terminator Genisys
  • Les tentations de Marianne
  • Devious Maids
  • True Detective
  • The Whispers
  • Teen Wolf
  • Plemya
  • Murder in the First
  • Contes immoraux
  • Major Crimes
  • The Last Ship
  • The Fosters
  • Meet Me There
  • Chained Heat

Recent Comments

  • Arsehole: Thanks! but some arsehole has tagged this as being made in 1969. What an arsehole
  • dingus:

    Waiting for "The Making Of The Mob New York Part 4 480p HDTV x264-RMTeam"...

  • mostek:

    Please re-up Uploaded.net links for movie Sara 2015.

    Thanks for all you do for us.

  • Malik:

    @TomMix

    Thanks for the reply.

  • TomMix: @Malik Yeah. Google the filename and you find http://s.gullipics.com/image/u/f/3/jxww90w-luk4w2-ukum...
  • kev: @edom Because this was uploaded one year ago. I have already asked if it's possible for them to uplo...
  • edom:

    why there is no file to download rmteam?

  • Malik:

    Are there any Korean or Chinese subs in this release?

  • reddevil: Thank You for wayward-pines-s01e07-720p-web-dl-hevc-x265-rmteam hopefully you would do e06 in 720 we...
  • bearman:

    thanks