Sign Up   |   Sign In  
array ( 'size' => '728x90', 'publishers' => array ( 'wwpromoter' => 3, 'taptica' => 2, 'revenuehits' => 2, ), )

Announcements

Click to Donate!
Get a RapidRAR Premium Key as a gift.
RapidRAR Account
3 USD/EUR
7 Days
8 USD/EUR
30 Days
20 USD/EUR
3 Months
35 USD/EUR
6 Months
65 USD/EUR
1 Year
-- We need your support to keep this website alive --
Please buy a RapidRAR premium key from this reseller
Or use this LINK to REGISTER or RENEW your account on Uploaded.net.
Guide: How to download from RapidRAR at maximum speed

08/18

2013

2

Comments

array ( 'size' => '468x60', 'publishers' => array ( ), )

Revenge of the Creature (1955) DVDRip
[UL/EB/180U/HuF]
Size: 842MB avi XVID / AC3

array ( 'size' => '468x60', 'publishers' => array ( ), )
Revenge of the Creature
array ( 'size' => '468x60', 'publishers' => array ( ), )
Click on the image to see full size
[UL/EB/180U/HuF] Revenge of the Creature (1955) DVDRip  (842MB) - Snapshot 1[UL/EB/180U/HuF] Revenge of the Creature (1955) DVDRip  (842MB) - Snapshot 2
File Information
Revenge of the Creature (1955) DVDRip 

IMDb: http://www.imdb.com/title/tt0048554/



General
Complete name                            : Revenge of the Creature (1955).avi
Format                                   : AVI
Format/Info                              : Audio Video Interleave
Format profile                           : OpenDML
Format settings                          : rec
File size                                : 803 MiB
Duration                                 : 1h 21mn
Overall bit rate                         : 1 374 Kbps
Writing application                      : AVI-Mux GUI 1.17.8, Aug 30 2008  12:36:58

Video
ID                                       : 0
Format                                   : MPEG-4 Visual
Format profile                           : Advanced Simple@L5
Format settings, BVOP                    : 1
Format settings, QPel                    : No
Format settings, GMC                     : No warppoints
Format settings, Matrix                  : Default (MPEG)
Muxing mode                              : Packed bitstream
Codec ID                                 : XVID
Codec ID/Hint                            : XviD
Duration                                 : 1h 21mn
Bit rate                                 : 1 240 Kbps
Width                                    : 624 pixels
Height                                   : 448 pixels
Display aspect ratio                     : 1.393
Frame rate                               : 23.976 fps
Color space                              : YUV
Chroma subsampling                       : 4:2:0
Bit depth                                : 8 bits
Scan type                                : Progressive
Compression mode                         : Lossy
Bits/(Pixel*Frame)                       : 0.185
Stream size                              : 725 MiB (90%)
Writing library                          : XviD 1.2.0.dev47 (UTC 2006-11-01)

Audio
ID                                       : 1
Format                                   : AC-3
Format/Info                              : Audio Coding 3
Mode extension                           : CM (complete main)
Format settings, Endianness              : Big
Codec ID                                 : 2000
Duration                                 : 1h 21mn
Bit rate mode                            : Constant
Bit rate                                 : 128 Kbps
Channel(s)                               : 2 channels
Channel positions                        : Front: L R
Sampling rate                            : 48.0 KHz
Bit depth                                : 16 bits
Compression mode                         : Lossy
Stream size                              : 74.8 MiB (9%)
Alignment                                : Aligned on interleaves
Interleave, duration                     : 64 ms (1.53 video frames)
Interleave, preload duration             : 192 ms
Title                                    : 1
array ( 'size' => '468x60', 'publishers' => array ( ), )
Download
RAR Recovery Record: 5%
array ( 'size' => '468x60', 'publishers' => array ( ), )
  Link(s) are dead.
  Link(s) are dead.
  Link(s) are dead.
 
» Click to see all releases of "Revenge of the Creature" ...

Show us some love

2 Responses to "[UL/EB/180U/HuF] Revenge of the Creature (1955) DVDRip (842MB)"
08/18/13
17:34:29
matchbox

Thanks for this. I love these old 1950's horror and sci-fi films. Keep them coming!

11/28/14
22:42:39
daemon

Any chance of getting working links.

Thank you.

Leave a Comment

  • (never displayed)
  •  
        Members don't see captchas. Sign Up / Sign In
  • Notify me via email when someone responds.
  • Subscribe my Feeds
  • Facebook

Latest Episodes

Popular Movies and TV Shows

  • Agents of S.H.I.E.L.D.
  • The Flash
  • Person of Interest
  • The American Side
  • Zoolander 2
  • Stitchers
  • New Girl
  • Groundhog Day
  • NCIS: Naval Criminal Investigative Service
  • The VVitch: A New-England Folktale
  • Independence Day
  • Chicago Fire
  • NCIS: New Orleans
  • The Grinder
  • Dirty Grandpa
  • Hello, My Name Is Doris
  • El Club
  • Game of Thrones
  • Gotham
  • Blindspot
  • How to Be Single
  • Captain America: Civil War
  • Requiem for the American Dream
  • Fear the Walking Dead

Recent Comments

  • Johnser:

    Thanks a lot m8.

  • violetcherry: I agree with most of that @ MEH, especially where malware is often hidden, and it can give a site a ...
  • MeH: So what to do to be safe and secure in this cyber era? That's a simple question to answer (While it ...
  • Me (not logged in version): @Joey: click to see the hidden links, and then after you're transported to another page, close that ...
  • MeH: Online advertising is life blood of many free services you use everyday e.g. Google services, Facebo...
  • MeH: Much Ado About NothingSome folks here talk nasty about Openload. Just checked it and nothing!:O Nob...
  • joey argentin:

    Cant see the links

  • MeH: Current mix of file sharing and hosting sites is OK. Good job, RMTeam ClicknUpload and OpenLoad are ...
  • MeH: H.265/HEVC is an amazing thing, MKV is great (container), RapidRAR is OK (even with new restrictions...
  • uncabrian:

    Thank you for keeping links up this long