Sign Up   |   Sign In  

Announcements

Click to Donate!
Get a RapidRAR Premium Key as a gift.
RapidRAR Account
3 USD/EUR
7 Days
8 USD/EUR
30 Days
20 USD/EUR
3 Months
35 USD/EUR
6 Months
65 USD/EUR
1 Year
-- We need your support to keep this website alive --
Please buy a RapidRAR premium key from this reseller
Or use this LINK to REGISTER or RENEW your account on Uploaded.net.

08/18

2013

2

Comments

Revenge of the Creature (1955) DVDRip
[UL/EB/180U/HuF]
Size: 842MB avi XVID / AC3

Revenge of the Creature
Click on the image to see full size
[UL/EB/180U/HuF] Revenge of the Creature (1955) DVDRip  (842MB) - Snapshot 1[UL/EB/180U/HuF] Revenge of the Creature (1955) DVDRip  (842MB) - Snapshot 2
File Information
Revenge of the Creature (1955) DVDRip 

IMDb: http://www.imdb.com/title/tt0048554/



General
Complete name                            : Revenge of the Creature (1955).avi
Format                                   : AVI
Format/Info                              : Audio Video Interleave
Format profile                           : OpenDML
Format settings                          : rec
File size                                : 803 MiB
Duration                                 : 1h 21mn
Overall bit rate                         : 1 374 Kbps
Writing application                      : AVI-Mux GUI 1.17.8, Aug 30 2008  12:36:58

Video
ID                                       : 0
Format                                   : MPEG-4 Visual
Format profile                           : Advanced Simple@L5
Format settings, BVOP                    : 1
Format settings, QPel                    : No
Format settings, GMC                     : No warppoints
Format settings, Matrix                  : Default (MPEG)
Muxing mode                              : Packed bitstream
Codec ID                                 : XVID
Codec ID/Hint                            : XviD
Duration                                 : 1h 21mn
Bit rate                                 : 1 240 Kbps
Width                                    : 624 pixels
Height                                   : 448 pixels
Display aspect ratio                     : 1.393
Frame rate                               : 23.976 fps
Color space                              : YUV
Chroma subsampling                       : 4:2:0
Bit depth                                : 8 bits
Scan type                                : Progressive
Compression mode                         : Lossy
Bits/(Pixel*Frame)                       : 0.185
Stream size                              : 725 MiB (90%)
Writing library                          : XviD 1.2.0.dev47 (UTC 2006-11-01)

Audio
ID                                       : 1
Format                                   : AC-3
Format/Info                              : Audio Coding 3
Mode extension                           : CM (complete main)
Format settings, Endianness              : Big
Codec ID                                 : 2000
Duration                                 : 1h 21mn
Bit rate mode                            : Constant
Bit rate                                 : 128 Kbps
Channel(s)                               : 2 channels
Channel positions                        : Front: L R
Sampling rate                            : 48.0 KHz
Bit depth                                : 16 bits
Compression mode                         : Lossy
Stream size                              : 74.8 MiB (9%)
Alignment                                : Aligned on interleaves
Interleave, duration                     : 64 ms (1.53 video frames)
Interleave, preload duration             : 192 ms
Title                                    : 1
Download
RAR Recovery Record: 5%
  Link(s) are dead.
  Link(s) are dead.
  Link(s) are dead.
 
» Click to see all releases of "Revenge of the Creature" ...

Show us some love

2 Responses to "[UL/EB/180U/HuF] Revenge of the Creature (1955) DVDRip (842MB)"
08/18/13
17:34:29
matchbox

Thanks for this. I love these old 1950's horror and sci-fi films. Keep them coming!

11/28/14
22:42:39
daemon

Any chance of getting working links.

Thank you.

Leave a Comment

  • (never displayed)
  •  
        Members don't see captchas. Sign Up / Sign In
  • Notify me via email when someone responds.
  • Subscribe my Feeds
  • Facebook

Latest Episodes

Popular Movies and TV Shows

  • Person of Interest
  • Blindspot
  • Gotham
  • Grimsby
  • 13 Hours: The Secret Soldiers of Benghazi
  • Legend of the Red Reaper
  • 12 Monkeys
  • Containment
  • Preacher
  • The Other Side of the Door
  • Orgazmo
  • Fallo!
  • Game of Thrones
  • Hunters
  • The Late Late Show with James Corden
  • Deadpool
  • Dan Soder: Not Special
  • X-Men: Apocalypse
  • Fear the Walking Dead
  • Penny Dreadful
  • Silicon Valley
  • Presumed
  • Aliens: The Big Think
  • All the Way
  • Outlander

Recent Comments