Sign Up   |   Sign In  

Announcements

Please use this LINK to REGISTER or RENEW your account on Uploaded.net to support us.
We need your support to keep this website alive!

09/08

2011

No

Comments

Megamind The Button Of Doom 2011 Dvd Rip Xvid TCM
[1L RS/FSC/WU]
Size: 338MB Single Link

Megamind: The Button of Doom
Click on the image to see full size
[1L RS/FSC/WU] Megamind The Button Of Doom 2011 Dvd Rip Xvid TCM (338MB) - Snapshot 1[1L RS/FSC/WU] Megamind The Button Of Doom 2011 Dvd Rip Xvid TCM (338MB) - Snapshot 2[1L RS/FSC/WU] Megamind The Button Of Doom 2011 Dvd Rip Xvid TCM (338MB) - Snapshot 3[1L RS/FSC/WU] Megamind The Button Of Doom 2011 Dvd Rip Xvid TCM (338MB) - Snapshot 4
File Information
Complete name                            : C:\Megamind.The.Button.Of.Doom.2011.Dvd.Rip.Xvid.TCM\M.T.B.O.D.TCM.avi
 Format                                   : AVI
 Format/Info                              : Audio Video Interleave
 File size                                : 339 MiB
 Duration                                 : 15mn 10s
 Overall bit rate                         : 3 119 Kbps
 Movie name                               : M.T.B.O.D.TCM
 Encoded by                               : Cooperman
 Writing application                      : VirtualDub build 32842/
 Copyright                                : TCM

 Video
 ID                                       : 0
 Format                                   : MPEG-4 Visual
 Format profile                           : Advanced Simple@L5
 Format settings, BVOP                    : 1
 Format settings, QPel                    : No
 Format settings, GMC                     : No warppoints
 Format settings, Matrix                  : Custom
 Codec ID                                 : XVID
 Codec ID/Hint                            : XviD
 Duration                                 : 15mn 10s
 Bit rate                                 : 2 998 Kbps
 Width                                    : 704 pixels
 Height                                   : 400 pixels
 Display aspect ratio                     : 16:9
 Frame rate                               : 25.000 fps
 Color space                              : YUV
 Chroma subsampling                       : 4:2:0
 Bit depth                                : 8 bits
 Scan type                                : Progressive
 Compression mode                         : Lossy
 Bits/(Pixel*Frame)                       : 0.426
 Stream size                              : 325 MiB (96%)
 Writing library                          : XviD 64

 Audio
 ID                                       : 1
 Format                                   : MPEG Audio
 Format version                           : Version 1
 Format profile                           : Layer 3
 Mode                                     : Joint stereo
 Mode extension                           : MS Stereo
 Codec ID                                 : 55
 Codec ID/Hint                            : MP3
 Duration                                 : 15mn 10s
 Bit rate mode                            : Constant
 Bit rate                                 : 112 Kbps
 Channel(s)                               : 2 channels
 Sampling rate                            : 44.1 KHz
 Compression mode                         : Lossy
 Delay relative to video                  : 500ms
 Stream size                              : 12.2 MiB (4%)
 Alignment                                : Split accross interleaves
 Interleave, duration                     : 40 ms (1.00 video frame)
 Interleave, preload duration             : 500 ms
 Writing library                          : LAME3.98r
 Encoding settings                        : -m j -V 4 -q 2 -lowpass 15.6 -b 112
 Language                                 : English
 Subs                                     : No

 source file : Megamind.The.Button.Of.Doom.2011.COMPLETE.NORDiC.PAL.DVDR-PRiNGLES
Download
  Link(s) are dead.
  Link(s) are dead.
  Link(s) are dead.
» Click to see all releases of "Megamind: The Button of Doom " ...

Show us some love

Leave a Comment

  • (never displayed)

  •     Members don't see captchas. Sign Up / Sign In
  • Notify me via email when someone responds.
  • Subscribe my Feeds
  • Facebook

Latest Episodes

Popular Movies and TV Shows

  • Captain America: The Winter Soldier
  • Dominion
  • Godzilla
  • Hercules
  • Defiance
  • Rogue
  • Gang Related
  • Rush
  • The Amazing Spider-Man 2
  • Transformers: Age of Extinction
  • You're the Worst
  • Rectify
  • The Honourable Woman
  • Life After Beth
  • Extant
  • Suits
  • Dawn of the Planet of the Apes
  • Sharknado 2: The Second One
  • The Bridge