Sign Up   |   Sign In  

Announcements

Please use this LINK to REGISTER or RENEW your account on OBOOM.com to support us.
We need your support to keep this website alive!
If you can't buy an OBOOM account, click here and try to buy an Uploaded.net account.

02/28

2012

No

Comments

Machine Gun Preacher 2011 DVDRip XviD AC3-5 1 Une-CM8
[RS/IF/UL/SO/JF]
Size: 1.5GB

Machine Gun Preacher
Click on the image to see full size
[RS/IF/UL/SO/JF] Machine Gun Preacher 2011 DVDRip XviD AC3-5 1 Une-CM8 (1.5GB) - Snapshot 1[RS/IF/UL/SO/JF] Machine Gun Preacher 2011 DVDRip XviD AC3-5 1 Une-CM8 (1.5GB) - Snapshot 2[RS/IF/UL/SO/JF] Machine Gun Preacher 2011 DVDRip XviD AC3-5 1 Une-CM8 (1.5GB) - Snapshot 3[RS/IF/UL/SO/JF] Machine Gun Preacher 2011 DVDRip XviD AC3-5 1 Une-CM8 (1.5GB) - Snapshot 4
File Information
Machine.Gun.Preacher.2011.DVDRip.XviD.AC3-5.1.Une-CM8


Source: DVDR VOBs THX ripperschoice


http://www.imdb.com/title/tt1586752/


General
Complete name                    : Machine.Gun.Preacher.2011.DVDRip.XviD.AC3-5.1.Une-CM8
Format                           : AVI
Format/Info                      : Audio Video Interleave
File size                        : 1.46 GiB
Duration                         : 2h 3mn
Overall bit rate                 : 1 690 Kbps
Writing application              : VirtualDubMod 1.5.4.1 (build 2178/release)
Writing library                  : VirtualDubMod build 2178/release

Video
ID                               : 0
Format                           : MPEG-4 Visual
Format profile                   : Advanced Simple@L5
Format settings, BVOP            : 1
Format settings, QPel            : No
Format settings, GMC             : No warppoints
Format settings, Matrix          : Custom
Codec ID                         : XVID
Codec ID/Hint                    : XviD
Duration                         : 2h 3mn
Bit rate                         : 1 235 Kbps
Width                            : 720 pixels
Height                           : 304 pixels
Display aspect ratio             : 2.35:1
Frame rate                       : 25.000 fps
Color space                      : YUV
Chroma subsampling               : 4:2:0
Bit depth                        : 8 bits
Scan type                        : Progressive
Compression mode                 : Lossy
Bits/(Pixel*Frame)               : 0.226
Stream size                      : 1.07 GiB (73%)
Writing library                  : XviD 1.2.1 (UTC 2008-12-04)

Audio
ID                               : 1
Format                           : AC-3
Format/Info                      : Audio Coding 3
Mode extension                   : CM (complete main)
Codec ID                         : 2000
Duration                         : 2h 3mn
Bit rate mode                    : Constant
Bit rate                         : 448 Kbps
Channel(s)                       : 6 channels
Channel positions                : Front: L C R, Side: L R, LFE
Sampling rate                    : 48.0 KHz
Bit depth                        : 16 bits
Compression mode                 : Lossy
Stream size                      : 396 MiB (27%)
Alignment                        : Split accross interleaves
Interleave, duration             : 96 ms (2.40 video frames)
Interleave, preload duration     : 96 ms



The story of Sam Childers, a former drug-dealing biker tough guy who found God and became 
a crusader for hundreds of Sudanese children who've been forced to become soldiers. 

Gerard Butler ...  Sam Childers
Michelle Monaghan ...  Lynn Childers
Kathy Baker ...  Daisy
Michael Shannon ...  Donnie
Madeline Carroll ...  Paige













WAS GUNNA ADD READNFO BUT I REALLY DONT HAVE ANYTHING TO SAY 


Greetz

ViSiON,SPK,SceneLovers,PRESTiGE,SANTi,3LT0N,YanKeeS,COPYxRIGHT,THC,T0XiC
D2U,LKRG,Feel-Free,FLAWL3SS,WBZ,BHRG,26K,NOVA,TED,MAGNET,jtr
Unevano,Rapeseed,SAFC,goldadvance,KaN1vE,Pinnz,Wayne
Mr Hive,and most P2P groups
Great Work Guys 

LOOKING FOR ANYTHING YOU WANT TO LOOK AND SOUND BETTER

CM8@hushmail.com




ADD THE UPLOADER A REP
Download
RAR Recovery Record: 5%
  Link(s) are dead.
  Link(s) are dead.
 
  Link(s) are dead.
  Link(s) are dead.
» Click to see all releases of "Machine Gun Preacher" ...

Show us some love

Leave a Comment

  • (never displayed)

  •     Members don't see captchas. Sign Up / Sign In
  • Notify me via email when someone responds.
  • Subscribe my Feeds
  • Facebook
OBOOM.com

Latest Episodes

Popular Movies and TV Shows

  • Arrow
  • The 100
  • Captain America: The Winter Soldier
  • The Americans
  • Veronica Mars
  • Modern Family
  • Reign
  • Sabotage
  • Supernatural
  • Ghost Bride
  • Herutâ sukerutâ
  • Nymphomaniac: Vol. II
  • Soof
  • Suburgatory
  • Agents of S.H.I.E.L.D.
  • Need for Speed
  • Fargo
  • Nymphomaniac: Vol. I
  • Game of Thrones
  • Melissa & Joey

Recent Comments

  • Gre:

    where is S01E02 mSD?

  • liza:

    Thanks :)

  • goodlooker:

    hey thanks for this

  • liza:

    Thanks a lot :)

  • TheRandomOne:

    Can you guys re upload The Americans S01 480p ?

  • bodyS:

    not in english , what a waste

  • TomMix: God knows. The nfo says AVC video and MP3 audio, in an AVI. Which is completely idiotic.Even if it's...
  • Mr-Glass: Is oboom sucking ass for anyone else?? I have premium, but uploaded premium is way faster for me.. ...
  • Excalibur:

    What is a "H264 constrained baseline"? It says XVID AVI.

  • monoceros:

    Thank you!