Sign Up   |   Sign In  

Announcements

Please use this LINK to REGISTER or RENEW your account on Uploaded.net to support us.
We need your support to keep this website alive!

02/05

2014

No

Comments

Hollywood Hillbillies S01E02 Michaels First Audition SDTV x264-W
[UL/180U]
Size: 277MB Single Link mp4 X264 / AAC 640x430

Hollywood Hillbillies
Click on the image to see full size
[UL/180U/HuF/PL] Hollywood Hillbillies S01E02 Michaels First Audition SDTV x264-W (277MB) - Snapshot 1[UL/180U/HuF/PL] Hollywood Hillbillies S01E02 Michaels First Audition SDTV x264-W (277MB) - Snapshot 2
File Information
credit goes to original uploader

File size                                : 264 MiB
Duration                                 : 22mn 10s
Overall bit rate mode                    : Variable
Overall bit rate                         : 1 665 Kbps
Encoded date                             : UTC 2014-01-24 15:09:42
Tagged date                              : UTC 2014-01-24 15:17:29
Writing application                      : HandBrake 0.9.9 2013051800

Video
ID                                       : 1
Format                                   : AVC
Format/Info                              : Advanced Video Codec
Format profile                           : Main@L4.0
Format settings, CABAC                   : Yes
Format settings, ReFrames                : 4 frames
Codec ID                                 : avc1
Codec ID/Info                            : Advanced Video Coding
Duration                                 : 22mn 10s
Bit rate mode                            : Variable
Bit rate                                 : 1 500 Kbps
Width                                    : 640 pixels
Height                                   : 430 pixels
Display aspect ratio                     : 4:3
Frame rate mode                          : Constant
Frame rate                               : 29.970 fps
Color space                              : YUV
Chroma subsampling                       : 4:2:0
Bit depth                                : 8 bits
Scan type                                : Progressive
Bits/(Pixel*Frame)                       : 0.182
Stream size                              : 238 MiB (90%)
Writing library                          : x264 core 130 r2273 b3065e6
Encoding settings                        : cabac=1 / ref=1 / deblock=1:0:0 / analyse=0x1:0x111 / me=hex / subme=2 / psy=1 / psy_rd=1.00:0.00 / mixed_ref=0 / me_range=16 / chroma_me=1 / trellis=0 / 8x8dct=0 / cqm=0 / deadzone=21,11 / fast_pskip=1 / chroma_qp_offset=0 / threads=6 / lookahead_threads=2 / sliced_threads=0 / nr=0 / decimate=1 / interlaced=0 / bluray_compat=0 / constrained_intra=0 / bframes=3 / b_pyramid=2 / b_adapt=1 / b_bias=0 / direct=1 / weightb=1 / open_gop=0 / weightp=1 / keyint=300 / keyint_min=30 / scenecut=40 / intra_refresh=0 / rc_lookahead=10 / rc=2pass / mbtree=1 / bitrate=1500 / ratetol=1.0 / qcomp=0.60 / qpmin=0 / qpmax=69 / qpstep=4 / cplxblur=20.0 / qblur=0.5 / vbv_maxrate=20000 / vbv_bufsize=25000 / nal_hrd=none / ip_ratio=1.40 / aq=1:1.00
Encoded date                             : UTC 2014-01-24 15:09:42
Tagged date                              : UTC 2014-01-24 15:17:29
Color primaries                          : BT.709-5, BT.1361, IEC 61966-2-4, SMPTE RP177
Transfer characteristics                 : BT.709-5, BT.1361
Matrix coefficients                      : BT.709-5, BT.1361, IEC 61966-2-4 709, SMPTE RP177

Audio
ID                                       : 2
Format                                   : AAC
Format/Info                              : Advanced Audio Codec
Format profile                           : LC
Codec ID                                 : 40
Duration                                 : 22mn 10s
Bit rate mode                            : Variable
Bit rate                                 : 160 Kbps
Maximum bit rate                         : 187 Kbps
Channel(s)                               : 2 channels
Channel positions                        : Front: L R
Sampling rate                            : 48.0 KHz
Compression mode                         : Lossy
Delay relative to video                  : -67ms
Stream size                              : 25.4 MiB (10%)
Language                                 : English
Encoded date                             : UTC 2014-01-24 15:09:42
Tagged date                              : UTC 2014-01-24 15:17:29
Download
RAR Recovery Record: 5%
 
 
» Click to see all releases of "Hollywood Hillbillies" ...

Show us some love

Leave a Comment

  • (never displayed)

  •     Members don't see captchas. Sign Up / Sign In
  • Notify me via email when someone responds.
  • Subscribe my Feeds
  • Facebook

Latest Episodes

Popular Movies and TV Shows

  • Crossbones
  • Divergent
  • The Legend of Korra
  • Ninja Apocalypse
  • Dawn of the Planet of the Apes
  • Ancient Aliens
  • The Amazing Spider-Man 2
  • The Expendables 3
  • Girl Meets World
  • Captain America: The Winter Soldier
  • Captain America: The First Avenger
  • Dominion
  • Cold in July
  • Defiance
  • You're the Worst
  • Gang Related
  • Rush
  • Satisfaction
  • Mr. Peabody & Sherman
  • Transformers: Age of Extinction