Sign Up   |   Sign In  

Announcements

Please use this LINK to REGISTER or RENEW your account on Uploaded.net to support us.
We need your support to keep this website alive!

10/04

2012

No

Comments

Breaking Amish S01E04 New Beginnings 720p HDTV x264-NOGRP
[UL/RS]
Size: 1GB mkv X264 / AC3  HD 

Breaking Amish
Click on the image to see full size
[UL/RS/SS/PL/FC] Breaking Amish S01E04 New Beginnings 720p HDTV x264-NOGRP (1GB) - Snapshot 1[UL/RS/SS/PL/FC] Breaking Amish S01E04 New Beginnings 720p HDTV x264-NOGRP (1GB) - Snapshot 2
File Information
General
Unique ID : 207426079027104807317837622863549660559 (0x9C0CCF477BF948031AA22B9926D37D8F)
Complete name : /mnt/tv/Breaking.Amish.S01E04.New.Beginnings/Breaking.Amish.S01E04.New.Beginnings.720p.hdtv.x264.mkv
Format : Matroska
Format version : Version 2
File size : 1 016 MiB
Duration : 40mn 35s
Overall bit rate : 3 499 Kbps
Encoded date : UTC 2012-10-01 03:32:51
Writing application : mkvmerge v5.0.1 ('Es ist Sommer') built on Apr 25 2012 21:40:23
Writing library : libebml v1.2.2 + libmatroska v1.3.0

Video
ID : 1
Format : AVC
Format/Info : Advanced Video Codec
Format profile : High@L3.2
Format settings, CABAC : Yes
Format settings, ReFrames : 4 frames
Muxing mode : Header stripping
Codec ID : V_MPEG4/ISO/AVC
Duration : 40mn 35s
Bit rate : 3 302 Kbps
Width : 1 280 pixels
Height : 720 pixels
Display aspect ratio : 16:9
Frame rate mode : Variable
Frame rate : 59.940 fps
Color space : YUV
Chroma subsampling : 4:2:0
Bit depth : 8 bits
Scan type : Progressive
Bits/(Pixel*Frame) : 0.060
Stream size : 958 MiB (94%)
Writing library : x264 core 122
Encoding settings : cabac=1 / ref=2 / deblock=1:0:0 / analyse=0x3:0x113 / me=hex / subme=6 / psy=1 / psy_rd=1.00:0.00 / mixed_ref=1 / me_range=16 / chroma_me=1 / trellis=2 / 8x8dct=1 / cqm=0 / deadzone=21,11 / fast_pskip=1 / chroma_qp_offset=-2 / threads=36 / sliced_threads=0 / nr=0 / decimate=1 / interlaced=0 / bluray_compat=0 / constrained_intra=0 / bframes=3 / b_pyramid=2 / b_adapt=1 / b_bias=0 / direct=1 / weightb=1 / open_gop=0 / weightp=1 / keyint=250 / keyint_min=25 / scenecut=40 / intra_refresh=0 / rc_lookahead=30 / rc=crf / mbtree=1 / crf=20.0 / qcomp=0.60 / qpmin=0 / qpmax=69 / qpstep=4 / ip_ratio=1.40 / aq=1:1.00
Default : Yes
Forced : No

Audio
ID : 2
Format : AC-3
Format/Info : Audio Coding 3
Mode extension : CM (complete main)
Format settings, Endianness : Big
Muxing mode : Header stripping
Codec ID : A_AC3
Duration : 40mn 35s
Bit rate mode : Constant
Bit rate : 128 Kbps
Channel(s) : 6 channels
Channel positions : Front: L C R, Side: L R, LFE
Sampling rate : 48.0 KHz
Bit depth : 16 bits
Compression mode : Lossy
Stream size : 37.2 MiB (4%)
Default : Yes
Forced : No

Episode Name: New Beginnings
Season: 1
Episode: 4
Aired: 2012-09-30

Episode Overview:
Rebecca faces a brutal reality from her past; Sabrina struggles to connect with her ethnic heritage; Kate breaks down over being shunned by her family; romance begins to blossom between two cast-mates
Download
RAR Recovery Record: 5%
 
  Link(s) are dead.
  Link(s) are dead.
» Click to see all releases of "Breaking Amish" ...

Show us some love

Leave a Comment

  • (never displayed)

  •     Members don't see captchas. Sign Up / Sign In
  • Notify me via email when someone responds.
  • Subscribe my Feeds
  • Facebook

Latest Episodes

Popular Movies and TV Shows

  • Arrow
  • American Horror Story
  • The 100
  • V/H/S: Viral
  • Left Behind
  • Modern Family
  • Reign
  • Stalker
  • Hercules
  • The Hobbit: The Desolation of Smaug
  • Criminal Minds
  • Chicago P.D.
  • The Mysteries of Laura
  • Frontera
  • A Most Wanted Man
  • The Flash
  • Agents of S.H.I.E.L.D.
  • Person of Interest
  • Step Up All In
  • Transformers: Age of Extinction