Sign Up   |   Sign In  

Announcements

Click to Donate!
Get a RapidRAR Premium Key as a gift.
RapidRAR Account
3 USD/EUR
7 Days
8 USD/EUR
30 Days
20 USD/EUR
3 Months
35 USD/EUR
6 Months
65 USD/EUR
1 Year
-- We need your support to keep this website alive --
Please buy a RapidRAR premium key from this reseller
Or use this LINK to REGISTER or RENEW your account on Uploaded.net.

07/04

2012

No

Comments

Apollo 13 1995 DVDRip Ac3-SLRG
[RS/IF/UL/JF/VK]
Size: 1.5GB avi XVID / AC3

Apollo 13
Click on the image to see full size
[RS/IF/UL/JF/VK] Apollo 13 1995 DVDRip Ac3-SLRG (1.5GB) - Snapshot 1[RS/IF/UL/JF/VK] Apollo 13 1995 DVDRip Ac3-SLRG (1.5GB) - Snapshot 2[RS/IF/UL/JF/VK] Apollo 13 1995 DVDRip Ac3-SLRG (1.5GB) - Snapshot 3
File Information
Apollo.13.1995.DVDRip.Ac3-SLRG



Mediainfo:
General
Complete name                            : APOLLO_13_AE_D2.Title1.avi
Format                                   : AVI
Format/Info                              : Audio Video Interleave
Format profile                           : OpenDML
File size                                : 1.50 GiB
Duration                                 : 1h 55mn
Overall bit rate                         : 1 854 Kbps
Movie name                               : APOLLO_13_AE_D2.Title1.DVDRip
Writing application                      : Lavf53.21.0
Original source form/Name                : APOLLO_13_AE_D2

Video
ID                                       : 0
Format                                   : MPEG-4 Visual
Format profile                           : Advanced Simple@L5
Format settings, BVOP                    : 2
Format settings, QPel                    : No
Format settings, GMC                     : No warppoints
Format settings, Matrix                  : Default (H.263)
Muxing mode                              : Packed bitstream
Codec ID                                 : XVID
Codec ID/Hint                            : XviD
Duration                                 : 1h 55mn
Bit rate                                 : 1 395 Kbps
Width                                    : 720 pixels
Height                                   : 404 pixels
Display aspect ratio                     : 16:9
Frame rate                               : 23.976 fps
Color space                              : YUV
Chroma subsampling                       : 4:2:0
Bit depth                                : 8 bits
Scan type                                : Progressive
Compression mode                         : Lossy
Bits/(Pixel*Frame)                       : 0.200
Stream size                              : 1.13 GiB (75%)
Writing library                          : XviD 1.2.1 (UTC 2008-12-04)

Audio
ID                                       : 1
Format                                   : AC-3
Format/Info                              : Audio Coding 3
Mode extension                           : CM (complete main)
Format settings, Endianness              : Big
Codec ID                                 : 2000
Duration                                 : 1h 55mn
Bit rate mode                            : Constant
Bit rate                                 : 448 Kbps
Channel(s)                               : 6 channels
Channel positions                        : Front: L C R, Side: L R, LFE
Sampling rate                            : 48.0 KHz
Bit depth                                : 16 bits
Compression mode                         : Lossy
Stream size                              : 371 MiB (24%)
Alignment                                : Aligned on interleaves
Interleave, duration                     : 32 ms (0.77 video frame)

Notes: None

Source: N/A (Retail) Thanks


http://www.imdb.com/title/tt0112384/

Screenshots:




Respects: To all the P2P groups keep up the fight  Special thanks to my mans for helping me get this process right, you know who you are.
Download
RAR Recovery Record: 5%
  Link(s) are dead.
  Link(s) are dead.
  Link(s) are dead.
  Link(s) are dead.
Watch Online (MP4)
» Click to see all releases of "Apollo 13" ...

Show us some love

Leave a Comment

  • (never displayed)
  •  
        Members don't see captchas. Sign Up / Sign In
  • Notify me via email when someone responds.
  • Subscribe my Feeds
  • Facebook

Latest Episodes

Popular Movies and TV Shows

  • Game of Thrones
  • Penny Dreadful
  • Silicon Valley
  • Warcraft
  • Mythica: The Necromancer
  • Date with Love
  • House of Lies
  • Veep
  • Good Witch
  • Zootopia
  • The Hard Corps
  • Evidence of Truth
  • Top Gear
  • Outlander
  • Space Cop
  • Bloodline
  • Keanu
  • The Do-Over
  • Wynonna Earp
  • Lost in the West
  • Hardcore Henry
  • The Musketeers
  • Wild Target
  • 13 Hours: The Secret Soldiers of Benghazi
  • Arrow

Recent Comments

  • Me (not logged in version): I like the flesh-eating virus 3.0 the best. Openload improved this website with its streaming mp4 fi...
  • No1Cares: openload needs to update their latest virus database. they will be back soon with all the newest vir...
  • Pegla: They heaven't written it is in english in the first place...Info you read is about the movie itself,...
  • Me (not logged in version): Openload keeps going offline every few minutes or so, which makes it too difficult to stream/downloa...
  • weenus:

    killers = automatic DL. Always quality.

  • rockmins:

    Please provide Openload link!

  • thaone:

    thx

  • thaone:

    thx

  • thaone:

    thx

  • thaone:

    thx