Sign Up   |   Sign In  

Announcements

Please use this LINK to REGISTER or RENEW your account on Uploaded.net to support us.
We need your support to keep this website alive!

07/04

2012

No

Comments

Apollo 13 1995 DVDRip Ac3-SLRG
[RS/IF/UL/JF/VK]
Size: 1.5GB Stream avi XVID / AC3

Apollo 13
Click on the image to see full size
[RS/IF/UL/JF/VK] Apollo 13 1995 DVDRip Ac3-SLRG (1.5GB) - Snapshot 1[RS/IF/UL/JF/VK] Apollo 13 1995 DVDRip Ac3-SLRG (1.5GB) - Snapshot 2[RS/IF/UL/JF/VK] Apollo 13 1995 DVDRip Ac3-SLRG (1.5GB) - Snapshot 3
File Information
Apollo.13.1995.DVDRip.Ac3-SLRG



Mediainfo:
General
Complete name                            : APOLLO_13_AE_D2.Title1.avi
Format                                   : AVI
Format/Info                              : Audio Video Interleave
Format profile                           : OpenDML
File size                                : 1.50 GiB
Duration                                 : 1h 55mn
Overall bit rate                         : 1 854 Kbps
Movie name                               : APOLLO_13_AE_D2.Title1.DVDRip
Writing application                      : Lavf53.21.0
Original source form/Name                : APOLLO_13_AE_D2

Video
ID                                       : 0
Format                                   : MPEG-4 Visual
Format profile                           : Advanced Simple@L5
Format settings, BVOP                    : 2
Format settings, QPel                    : No
Format settings, GMC                     : No warppoints
Format settings, Matrix                  : Default (H.263)
Muxing mode                              : Packed bitstream
Codec ID                                 : XVID
Codec ID/Hint                            : XviD
Duration                                 : 1h 55mn
Bit rate                                 : 1 395 Kbps
Width                                    : 720 pixels
Height                                   : 404 pixels
Display aspect ratio                     : 16:9
Frame rate                               : 23.976 fps
Color space                              : YUV
Chroma subsampling                       : 4:2:0
Bit depth                                : 8 bits
Scan type                                : Progressive
Compression mode                         : Lossy
Bits/(Pixel*Frame)                       : 0.200
Stream size                              : 1.13 GiB (75%)
Writing library                          : XviD 1.2.1 (UTC 2008-12-04)

Audio
ID                                       : 1
Format                                   : AC-3
Format/Info                              : Audio Coding 3
Mode extension                           : CM (complete main)
Format settings, Endianness              : Big
Codec ID                                 : 2000
Duration                                 : 1h 55mn
Bit rate mode                            : Constant
Bit rate                                 : 448 Kbps
Channel(s)                               : 6 channels
Channel positions                        : Front: L C R, Side: L R, LFE
Sampling rate                            : 48.0 KHz
Bit depth                                : 16 bits
Compression mode                         : Lossy
Stream size                              : 371 MiB (24%)
Alignment                                : Aligned on interleaves
Interleave, duration                     : 32 ms (0.77 video frame)

Notes: None

Source: N/A (Retail) Thanks


http://www.imdb.com/title/tt0112384/

Screenshots:




Respects: To all the P2P groups keep up the fight  Special thanks to my mans for helping me get this process right, you know who you are.
Download
RAR Recovery Record: 5%
  Link(s) are dead.
  Link(s) are dead.
 
  Link(s) are dead.
Watch Online
» Click to see all releases of "Apollo 13" ...

Show us some love

Leave a Comment

  • (never displayed)

  •     Members don't see captchas. Sign Up / Sign In
  • Notify me via email when someone responds.
  • Subscribe my Feeds
  • Facebook

Latest Episodes

Popular Movies and TV Shows

  • Agents of S.H.I.E.L.D.
  • Person of Interest
  • Sons of Anarchy
  • A Walk Among the Tombstones
  • The Godfather
  • New Girl
  • NCIS: Naval Criminal Investigative Service
  • Manhattan Love Story
  • Space Station 76
  • Ivory Tower
  • NCIS: New Orleans
  • The Driver
  • Chicago Fire
  • Sin City: A Dame to Kill For
  • Lifeforce
  • Gotham
  • The Big Bang Theory
  • The Blacklist
  • The Expendables 3
  • Transformers: Age of Extinction