Sign Up   |   Sign In  

Announcements

Please use this LINK to REGISTER or RENEW your account on Uploaded.net to support us.
We need your support to keep this website alive!

04/25

2013

No

Comments

21 & Over 2013 HDRip XVID AC3 5 1 HQ Hive-CM8
[UL/EB/180U]
Size: 1.4GB avi XVID / AC3

21 & Over
Click on the image to see full size
[UL/EB/180U] 21 & Over 2013 HDRip XVID AC3 5 1 HQ Hive-CM8 (1.4GB) - Snapshot 1[UL/EB/180U] 21 & Over 2013 HDRip XVID AC3 5 1 HQ Hive-CM8 (1.4GB) - Snapshot 2
File Information
##     ## #### ##     ## ########          ######  ##     ##  #######  
##     ##  ##  ##     ## ##               ##    ## ###   ### ##     ## 
##     ##  ##  ##     ## ##               ##       #### #### ##     ## 
#########  ##  ##     ## ######   ####### ##       ## ### ##  #######  
##     ##  ##   ##   ##  ##               ##       ##     ## ##     ## 
##     ##  ##    ## ##   ##               ##    ## ##     ## ##     ## 
##     ## ####    ###    ########          ######  ##     ##  #######  

###########  Thx Hive - CM8 Doing It Right The First Time  ###########


[IMG]http://img838.imageshack.us/img838/1460/20130307movieposter21ov.jpg[/IMG]


21.&.Over.2013.HDRip.XVID.AC3.5.1.HQ.Hive-CM8


Video.: 720x304 @bitrate 1700 2pass
Audio.: English AC3 5.1 @384 (yeah a real one, not a bogus upmix)
Sample: Yes, included


IMDb..: http://www.imdb.com/title/tt1711425/


ENCODE
unlike the others i got the real 1080p web-dl and the quality was great, also came along with
a russian 5.1 track. added brightness, sharpness, rgb and denoise. even though line was great
and in sync i did a thorough cleanup. Cleaned the russian audio track from voice and entered
the line back into it. so audio is in full shape now, and music and effects are inside where
they belong.
got great
enjoy


SOURCES
Video.: 1080p Web-DL
Audio.: Millenium(echo)-thx, +Russian 5.1 Track


General
Complete name                  : 21.&.Over.2013.HDRip.XVID.AC3.5.1.HQ.Hive-CM8.avi
Format                         : AVI
Format/Info                    : Audio Video Interleave
File size                      : 1.30 GiB
Duration                       : 1h 29mn
Overall bit rate               : 2 090 Kbps
Writing application            : Nandub v1.0rc2
Writing library                : Nandub build 1853/release

Video
ID                             : 0
Format                         : MPEG-4 Visual
Format profile                 : Advanced Simple@L5
Format settings, BVOP          : 2
Format settings, QPel          : Yes
Format settings, GMC           : No warppoints
Format settings, Matrix        : Default (H.263)
Muxing mode                    : Packed bitstream
Codec ID                       : XVID
Codec ID/Hint                  : XviD
Duration                       : 1h 29mn
Bit rate                       : 1 697 Kbps
Width                          : 720 pixels
Height                         : 400 pixels
Display aspect ratio           : 16:9
Frame rate                     : 25.000 fps
Color space                    : YUV
Chroma subsampling             : 4:2:0
Bit depth                      : 8 bits
Scan type                      : Progressive
Compression mode               : Lossy
Bits/(Pixel*Frame)             : 0.236
Stream size                    : 1.06 GiB (81%)
Writing library                : XviD 1.2.1 (UTC 2008-12-04)

Audio
ID                             : 1
Format                         : AC-3
Format/Info                    : Audio Coding 3
Mode extension                 : CM (complete main)
Format settings, Endianness    : Big
Codec ID                       : 2000
Duration                       : 1h 29mn
Bit rate mode                  : Constant
Bit rate                       : 384 Kbps
Channel(s)                     : 6 channels
Channel positions              : Front: L C R, Side: L R, LFE
Sampling rate                  : 48.0 KHz
Bit depth                      : 16 bits
Compression mode               : Lossy
Stream size                    : 245 MiB (18%)
Alignment                      : Split accross interleaves
Interleave, duration           : 40 ms (1.00 video frame)
Interleave, preload duration   : 500 ms


PLOT
The night before his big medical school interview, a promising student
celebrates his 21st birthday with his two best friends.


CAST
Miles Teller     ...     Miller
Justin Chon      ...     Jeff Chang
Sarah Wright     ...     Nicole


[img]http://img850.imageshack.us/img850/6323/21212121l.png[/img]
[img]http://img507.imageshack.us/img507/3786/2121212121.png[/img]
[img]http://img194.imageshack.us/img194/9247/71384943.png[/img]
[img]http://img22.imageshack.us/img22/3651/2121d.png[/img]
[img]http://img839.imageshack.us/img839/6420/212121e.png[/img]


[video=http://www.youtube.com/watch?v=Bc9vHeGNTY0]


GREETZ
ViSiON,SPK,SceneLovers,PRESTiGE,SANTi,3LT0N,YanKeeS,COPYxRIGHT,THC,T0XiC
D2U,LKRG,ADTRG,Feel-Free,KoDeKinG,FLAWL3SS,WBZ,BHRG,26K,NOVA,MAGNET
Unevano,BigVik,Rapeseed,SAFC,goldadvance,KaN1vE,Pinnz,Wayne,TED
SeeN,jtr,Limey,ICONiK,4PlayHD,THEDEN-RG,eXceSs,AKS74u,HiGH
Mr Hive,trepario,stallone,and most P2P groups
Great Work Guys!

LOOKING FOR ANYTHING YOU WANT TO LOOK AND SOUND BETTER

CM8@hushmail.com
Download
RAR Recovery Record: 5%
 
  Link(s) are dead.
 
» Click to see all releases of "21 & Over" ...

Show us some love

Leave a Comment

  • (never displayed)

  •     Members don't see captchas. Sign Up / Sign In
  • Notify me via email when someone responds.
  • Subscribe my Feeds
  • Facebook

Latest Episodes

Popular Movies and TV Shows

  • Agents of S.H.I.E.L.D.
  • Sons of Anarchy
  • Person of Interest
  • A Walk Among the Tombstones
  • Ivory Tower
  • NCIS: Naval Criminal Investigative Service
  • New Girl
  • NCIS: New Orleans
  • Hellion
  • Lifeforce
  • Gotham
  • The Big Bang Theory
  • The Blacklist
  • The Expendables 3
  • Transformers: Age of Extinction
  • Sleepy Hollow
  • Forever
  • Scorpion
  • Sin City: A Dame to Kill For
  • The November Man