Sign Up   |   Sign In  

Announcements

Please use this LINK to REGISTER or RENEW your account on Uploaded.net to support us.
We need your support to keep this website alive!

10/15

2013

3

Comments

Doctor Who - The Web of Fear - Complete
[UL/EB/180U]
Size: 1.7GB avi XVID / MP3 TV Pack

Doctor Who
Click on the image to see full size
[UL/EB/180U] Doctor Who - The Web of Fear - Complete (1.7GB) - Snapshot 1[UL/EB/180U] Doctor Who - The Web of Fear - Complete (1.7GB) - Snapshot 2
File Information
If You Enjoyed This Upload, Click The Button Below To Give Me A Rep Point! A Little Thanks Goes A Long Way


Doctor Who - The Web of Fear - Complete

All episodes 1-6.  Episode 1 is a dvd rip from the Lost In Time box set (which is just as good in quality as the iTunes rips).  2 & 4-6 are the recovered episodes from iTunes, with 3 being a high quality reconstruction from telesnaps of the still-missing episode


Average

ID : 1
Format : AVC
Format/Info: Advanced Video Codec
Format profile : Baseline@L3.0
Format settings, CABAC : No
Format settings, ReFrames: 1 frame
Codec ID : avc1
Codec ID/Info: Advanced Video Coding
Duration : 21mn 40s
Bit rate : 1 533 Kbps
Width: 482 pixels
Height : 480 pixels
Display aspect ratio : 4:3
Frame rate mode: Constant
Frame rate : 25.000 fps
Color space: YUV
Chroma subsampling : 4:2:0
Bit depth: 8 bits
Scan type: Progressive
Bits/(Pixel*Frame) : 0.265
Stream size: 238 MiB (94%)

Audio
ID : 2
Format : AAC
Format/Info: Advanced Audio Codec
Format profile : LC
Codec ID : 40
Duration : 21mn 40s
Bit rate mode: Constant
Bit rate : 99.5 Kbps
Channel(s) : 2 channels
Channel positions: Front: L R
Sampling rate: 44.1 KHz
Compression mode : Lossy
Stream size: 15.4 MiB (6%)
Language : English


If You Enjoyed This Upload, Click The Button Below To Give Me A Rep Point! A Little Thanks Goes A Long Way
Download
RAR Recovery Record: 5%
 
  Link(s) are dead.
 
» Click to see all releases of "Doctor Who" ...

Show us some love

3 Responses to "[UL/EB/180U] Doctor Who - The Web of Fear - Complete (1.7GB)"
10/15/13
10:19:20
scifibob

thanks its nice to see the old doctor who shows starting to be posted now

11/06/13
13:18:40
JohnSmith

Thanks so much for posting this recently found Doctor Who Story. Any chance of you posting Enemy Of The World, which was also found in Nigeria recently. So nice to hear that missing adventures are still being sought and more remakably FOUND. Yah!!! Bonus for the 50th Anniversary!!!

11/15/13
15:51:25
DPara

Where is Doctor Who The Enemy Of The World? Please post. Also other Classic Stories & Serials, please.

Leave a Comment

  • (never displayed)

  •     Members don't see captchas. Sign Up / Sign In
  • Notify me via email when someone responds.
  • Subscribe my Feeds
  • Facebook

Latest Episodes

Popular Movies and TV Shows

  • Transformers: Age of Extinction
  • Z Nation
  • The Wolf of Wall Street
  • Three Night Stand
  • Doctor Who
  • The Homesman
  • Edge of Tomorrow
  • Outlander
  • The Knick
  • Power Rangers Megaforce
  • And So It Goes
  • Crossing Lines
  • Frailty
  • Viking: The Berserkers
  • Haven
  • Lost Time
  • The Scribbler
  • Reclaim
  • Tim and Eric's Bedtime Stories
  • Big School